Results 1 to 6 of 6

Thread: Converting to AVI(Xvid) (800 Kbps) Problem

  1. #1
    Join Date
    Apr 2009
    Posts
    3
    Rep Power
    0

    Default Converting to AVI(Xvid) (800 Kbps) Problem

    Hi,

    I recently upgraded to v3.35 of the Converter and since then I have been unable to convert to the AVI Xvid 800 format. I have tried from flv to AVI and wmv to AVI to no avail (what I did just try is converting from AVI(MPEG-4 800) to the Xvid one and it worked but this creates a two step process which shouldn't be necessary). I had no problem with this format until recently. I even un-installed the program and re-installed the problem and the problem hasn't gone away. The primary reason I use this format is because I normally watch my AVIs on a DVD player/TV set and the other 800 kbps formats don't work. Any assistance would be appreciated. Here's what I found in my log:

    Stream #0.0: Video: libxvid, yuv420p, 320x180, q=2-31, 800 kb/s, 25.00 tb(c)
    Stream #0.1: Audio: mp2, 44100 Hz, stereo, s16, 128 kb/s
    Stream mapping:
    Stream #0.0 -> #0.0
    Stream #0.1 -> #0.1
    Press [q] to stop encoding
    [libxvid @ 0xb7c1d0]Invalid pixel aspect ratio 0/1
    Video encoding failed

    I've never touched any settings for any of these codec.

    Thanks.

  2. #2
    Join Date
    Feb 2008
    Posts
    4,327
    Rep Power
    10

    Default

    See if using troubleshoot makes a difference. Right mouse click the file when it is in the Converter. Select Troubleshoot and then try again. Thanks.

  3. #3
    Join Date
    Apr 2009
    Posts
    3
    Rep Power
    0

    Default

    Hi Cheryl,

    I also tried 'Troubleshoot' and it didn't work. It gave me the same 'Invalid pixel aspect ratio 0/1' in the log file.

    Barb

  4. #4
    Join Date
    Feb 2008
    Posts
    4,327
    Rep Power
    10

    Default

    At this point you need to go through tech support. We will need more info from you and your log file.

  5. #5
    Join Date
    Apr 2009
    Posts
    3
    Rep Power
    0

    Default

    Thanks. I've submitted a ticket along with the log (actually it's my third attempt in two weeks since I never received a confirmation or email that it was received on your end).

  6. #6
    Join Date
    Feb 2008
    Posts
    4,327
    Rep Power
    10

    Default

    If you haven't heard back from us send me a private message with your ticket number to look at. If you didn't get a ticket number then we didn't receive it. Make sure you follow all of the steps in submitting a ticket.

Similar Threads

  1. Files convert fine but won't play on Creative Zen Player
    By gcon2k in forum Replay Media Catcher
    Replies: 4
    Last Post: 10-14-2009, 09:13 PM
  2. Kbps setting
    By new4you182 in forum Replay Music
    Replies: 2
    Last Post: 09-26-2009, 03:13 AM
  3. problem with converting FLV to MP3
    By Rose1212 in forum Replay Media Catcher
    Replies: 0
    Last Post: 06-21-2009, 07:30 PM
  4. Problem Converting Real audio file
    By khiabani in forum Converting Audio and Video
    Replies: 11
    Last Post: 07-02-2008, 09:10 AM
  5. Problem Converting Some YouTube Videos
    By iluvfirenze in forum Replay Converter
    Replies: 4
    Last Post: 06-24-2008, 12:22 AM

Bookmarks

Posting Permissions

  • You may not post new threads
  • You may not post replies
  • You may not post attachments
  • You may not edit your posts
  •  
About these forums...
Applian Technologies makes these discussion forums available for our customers to assist other users. We do read this content and appreciate all your suggestions and comments. If you need technical support or customer service, please visit the links to the right.
Let's Be Friends