Results 1 to 7 of 7

Thread: bbc iplayer radio

  1. #1
    Join Date
    Nov 2009
    Posts
    17
    Rep Power
    0

    Default bbc iplayer radio

    Does anyone know why RMC 5 or 6 cannot download bbc iplayer radio anymore?

  2. #2
    Join Date
    Feb 2008
    Posts
    4,399
    Rep Power
    10

    Default Re: bbc iplayer radio

    If you have a specific link please send it so it can be tested. Thanks.

  3. #3
    Join Date
    Aug 2014
    Posts
    1
    Rep Power
    0

    Default Re: bbc iplayer radio

    Me too!

    BBC iPlayer capture worked very well at the end of August, but now always fails. Try capturing this link:
    http://www.bbc.co.uk/programmes/b06qkp8n .
    With RMC 5, after a few seconds there is an error noise and a message saying "Complete with errors (0 bytes).

    The properties - Progress Log of the empty recording give some clues:
    ========================
    File: E:\Frank_Home\Replay Media Catcher\BBC Radio 4 - Tom Wrigglesworth's Hang-Ups, Series 3, Profit and Loss - 1.mp3
    Queued for downloading
    Url: https://clients4.google.com/chrome-s...QQFMh5YN2e1Q==
    File: BBC Radio 4 - Tom Wrigglesworth's Hang-Ups, Series 3, Profit and Loss.mp3
    Starting HTTP download ...
    Detecting file name ...
    Applying YouTube naming rule if appropriate
    Applying Playlist naming rule
    Applying Referer naming rule
    Applying HTTP Page Title naming rule
    Applying Url Parameter naming rule
    Applying Url Path naming rule
    File name detection complete
    File: E:\Frank_Home\Replay Media Catcher\BBC Radio 4 - Tom Wrigglesworth's Hang-Ups, Series 3, Profit and Loss - 1.mp3
    Requesting download details ...
    Determining file format ...
    Cannot close stream until all bytes are written.
    Setting ID3 tags if appropriate
    Comment: Captured with Replay Media Catcher 5 - www.applian.com
    Title: BBC Radio 4 - Tom Wrigglesworth's Hang-Ups, Series 3, Profit and Loss
    Detecting file name from tags ...
    Extracted Tag Title = BBC Radio 4 - Tom Wrigglesworth's Hang-Ups, Series 3, Profit and Loss.
    File name detection complete
    Applying Playlist naming rule
    No extended title was found.
    Performing extended title search
    No extended title was found.
    Complete with errors
    ==================

    Here's the Progress log of a recording from the same iPlayer source back in August:
    >>>>>>>>>>>>>>>>>>>>>
    Starting conversion with arguments: -y -i "E:\Frank_Home\Replay Media Catcher\BBC Radio 4 Extra - What to Do If You're Not Like Everybody Else, Series 1, Personal Appearance.flv" -ss 0.00 -vn -acodec libmp3lame -ab 192000 -ar 48000 -ac 2 -f mp3 "E:\Frank_Home\Replay Media Catcher\BBC Radio 4 Extra - What to Do If You're Not Like Everybody Else, Series 1, Personal Appearance.mp3"
    File: E:\Frank_Home\Replay Media Catcher\BBC Radio 4 Extra - What to Do If You're Not Like Everybody Else, Series 1, Personal Appearance.flv
    File: E:\Frank_Home\Replay Media Catcher\BBC Radio 4 Extra - What to Do If You're Not Like Everybody Else, Series 1, Personal Appearance.mp3
    MP3 High Quality (MP3; 192 kbps)
    Starting conversion with arguments: -y -i "E:\Frank_Home\Replay Media Catcher\BBC Radio 4 Extra - What to Do If You're Not Like Everybody Else, Series 1, Personal Appearance.flv" -ss 0.00 -vn -acodec libmp3lame -ab 192000 -ar 48000 -ac 2 -f mp3 "E:\Frank_Home\Replay Media Catcher\BBC Radio 4 Extra - What to Do If You're Not Like Everybody Else, Series 1, Personal Appearance.mp3"
    ffmpeg version N-62283-ged96241 Copyright (c) 2000-2014 the FFmpeg developers
    built on Apr 8 2014 22:01:49 with gcc 4.8.2 (GCC)
    configuration: --enable-gpl --enable-version3 --disable-w32threads --enable-avisynth --enable-bzlib --enable-fontconfig --enable-frei0r --enable-gnutls --enable-iconv --enable-libass --enable-libbluray --enable-libcaca --enable-libfreetype --enable-libgsm --enable-libilbc --enable-libmodplug --enable-libmp3lame --enable-libopencore-amrnb --enable-libopencore-amrwb --enable-libopenjpeg --enable-libopus --enable-librtmp --enable-libschroedinger --enable-libsoxr --enable-libspeex --enable-libtheora --enable-libtwolame --enable-libvidstab --enable-libvo-aacenc --enable-libvo-amrwbenc --enable-libvorbis --enable-libvpx --enable-libwavpack --enable-libx264 --enable-libx265 --enable-libxavs --enable-libxvid --enable-zlib
    libavutil 52. 75.100 / 52. 75.100
    libavcodec 55. 58.103 / 55. 58.103
    libavformat 55. 36.102 / 55. 36.102
    libavdevice 55. 11.100 / 55. 11.100
    libavfilter 4. 3.100 / 4. 3.100
    libswscale 2. 6.100 / 2. 6.100
    libswresample 0. 18.100 / 0. 18.100
    libpostproc 52. 3.100 / 52. 3.100
    [flv @ 0441b7c0] Could not find codec parameters for stream 0 (Video: none): unspecified size
    Consider increasing the value for the 'analyzeduration' and 'probesize' options
    Input #0, flv, from 'E:\Frank_Home\Replay Media Catcher\BBC Radio 4 Extra - What to Do If You're Not Like Everybody Else, Series 1, Personal Appearance.flv':
    Metadata:
    moovPosition : 36
    aacaot : 2
    audiochannels : 2
    Duration: 00:14:29.23, start: 0.000000, bitrate: 131 kb/s
    Stream #0:0: Video: none, 1k tbr, 1k tbn, 1k tbc
    Stream #0:1: Audio: aac, 48000 Hz, stereo, fltp
    Output #0, mp3, to 'E:\Frank_Home\Replay Media Catcher\BBC Radio 4 Extra - What to Do If You're Not Like Everybody Else, Series 1, Personal Appearance.mp3':
    Metadata:
    moovPosition : 36
    aacaot : 2
    audiochannels : 2
    TSSE : Lavf55.36.102
    Stream #0:0: Audio: mp3 (libmp3lame), 48000 Hz, stereo, fltp, 192 kb/s
    Stream mapping:
    Stream #0:1 -> #0:0 (aac -> libmp3lame)
    Press [q] to stop, [?] for help
    size= 607kB time=00:00:25.84 bitrate= 192.4kbits/s
    size= 1086kB time=00:00:46.29 bitrate= 192.2kbits/s
    size= 1497kB time=00:01:03.84 bitrate= 192.2kbits/s
    size= 1974kB time=00:01:24.19 bitrate= 192.1kbits/s
    size= 2445kB time=00:01:44.28 bitrate= 192.1kbits/s
    size= 2918kB time=00:02:04.44 bitrate= 192.1kbits/s
    size= 3352kB time=00:02:22.96 bitrate= 192.1kbits/s
    size= 3792kB time=00:02:41.76 bitrate= 192.1kbits/s
    size= 4254kB time=00:03:01.46 bitrate= 192.1kbits/s
    size= 4722kB time=00:03:21.40 bitrate= 192.0kbits/s
    size= 5166kB time=00:03:40.34 bitrate= 192.0kbits/s
    size= 5594kB time=00:03:58.63 bitrate= 192.0kbits/s
    size= 6070kB time=00:04:18.93 bitrate= 192.0kbits/s
    size= 6532kB time=00:04:38.66 bitrate= 192.0kbits/s
    size= 6991kB time=00:04:58.24 bitrate= 192.0kbits/s
    size= 7419kB time=00:05:16.48 bitrate= 192.0kbits/s
    size= 7867kB time=00:05:35.61 bitrate= 192.0kbits/s
    size= 8235kB time=00:05:51.28 bitrate= 192.0kbits/s
    size= 8626kB time=00:06:07.99 bitrate= 192.0kbits/s
    size= 9045kB time=00:06:25.84 bitrate= 192.0kbits/s
    size= 9459kB time=00:06:43.51 bitrate= 192.0kbits/s
    size= 9915kB time=00:07:03.00 bitrate= 192.0kbits/s
    size= 10316kB time=00:07:20.11 bitrate= 192.0kbits/s
    size= 10765kB time=00:07:39.24 bitrate= 192.0kbits/s
    size= 11205kB time=00:07:58.00 bitrate= 192.0kbits/s
    size= 11648kB time=00:08:16.94 bitrate= 192.0kbits/s
    size= 12133kB time=00:08:37.63 bitrate= 192.0kbits/s
    size= 12613kB time=00:08:58.10 bitrate= 192.0kbits/s
    size= 13078kB time=00:09:17.92 bitrate= 192.0kbits/s
    size= 13493kB time=00:09:35.64 bitrate= 192.0kbits/s
    size= 13910kB time=00:09:53.44 bitrate= 192.0kbits/s
    size= 14322kB time=00:10:11.04 bitrate= 192.0kbits/s
    size= 14775kB time=00:10:30.36 bitrate= 192.0kbits/s
    size= 15184kB time=00:10:47.78 bitrate= 192.0kbits/s
    size= 15551kB time=00:11:03.45 bitrate= 192.0kbits/s
    size= 15935kB time=00:11:19.84 bitrate= 192.0kbits/s
    size= 16348kB time=00:11:37.46 bitrate= 192.0kbits/s
    size= 16745kB time=00:11:54.40 bitrate= 192.0kbits/s
    size= 17080kB time=00:12:08.71 bitrate= 192.0kbits/s
    size= 17489kB time=00:12:26.13 bitrate= 192.0kbits/s
    size= 17910kB time=00:12:44.08 bitrate= 192.0kbits/s
    size= 18320kB time=00:13:01.60 bitrate= 192.0kbits/s
    size= 18674kB time=00:13:16.70 bitrate= 192.0kbits/s
    size= 19054kB time=00:13:32.90 bitrate= 192.0kbits/s
    size= 19461kB time=00:13:50.28 bitrate= 192.0kbits/s
    size= 19881kB time=00:14:08.18 bitrate= 192.0kbits/s
    size= 20325kB time=00:14:27.16 bitrate= 192.0kbits/s
    size= 20374kB time=00:14:29.23 bitrate= 192.0kbits/s
    video:0kB audio:20373kB subtitle:0kB other streams:0kB global headers:0kB muxing overhead: 0.003331%
    Setting ID3 tags if appropriate
    Album:
    Album Artist:
    Comment: Captured with Replay Media Catcher 5 - www.applian.com
    Composer:
    Copyright:
    Genre:
    Grouping:
    Lyrics:
    Performer:
    Title: BBC Radio 4 Extra - What to Do If You're Not Like Everybody Else, Series 1, Personal Appearance
    Track Count: 0
    Track No: 0
    Year: 0
    Detecting file name from tags ...
    Complete
    >>>>>>>>>>>>>>>>>>>>>

    I would really like a solution to this problem.

    Thanks,
    Frank

  4. #4
    Join Date
    Nov 2009
    Posts
    17
    Rep Power
    0

    Default Re: bbc iplayer radio

    this programme (http://www.bbc.co.uk/programmes/b05nczjl) would download as a flv file and then be converted by rmc4,5, or 6,but not anymore.

  5. #5
    Join Date
    Feb 2008
    Posts
    4,399
    Rep Power
    10

    Default Re: bbc iplayer radio

    We are aware of this issue and the developer is looking into it. For now you are able to use the DVR method of capturing with Media Catcher. If you only want the audio you can also use audio capture. Thanks.

  6. #6
    Join Date
    Feb 2008
    Location
    The Interwebs
    Posts
    1,954
    Rep Power
    10

    Default Re: bbc iplayer radio

    Just curious if you were able to use Chery's advice to get this working for you?

    Thanks!
    Best Regards,

    Jeff Lenney
    Technical Support
    Applian Technologies, Inc.

  7. #7
    Join Date
    Nov 2009
    Posts
    17
    Rep Power
    0

    Default Re: bbc iplayer radio

    What cheryl said is true but it is not the same. RMC4/5/6 would download several programmes on the fly,save the flv file after converting to mp3. All I used to have to do is click play on each programme and leave RMC to do it`s thing.

Similar Threads

  1. IPlayer radio
    By rawzone in forum Replay Radio
    Replies: 0
    Last Post: 01-06-2015, 11:27 AM
  2. Replies: 2
    Last Post: 12-13-2013, 02:13 PM
  3. Replies: 8
    Last Post: 11-14-2010, 02:41 AM
  4. BBC iPlayer for Radio Programs Not Compatible w/RMC
    By phillipdampier in forum Replay Media Catcher
    Replies: 0
    Last Post: 03-26-2009, 01:51 PM
  5. BBC iPlayer radio
    By netcaf in forum Recording Streaming Audio
    Replies: 2
    Last Post: 08-25-2008, 11:08 PM

Bookmarks

Posting Permissions

  • You may not post new threads
  • You may not post replies
  • You may not post attachments
  • You may not edit your posts
  •  
About these forums...
Applian Technologies makes these discussion forums available for our customers to assist other users. We do read this content and appreciate all your suggestions and comments. If you need technical support or customer service, please visit the links to the right.
Let's Be Friends